Répondre à : Comment lire un film dans Oculus Cinéma avec le Gear VR ?

#10263

Antares11
Participant

Format Video : MKV
Format Audio : AC3
Doublage :VFF
Langue : FRANCAIS
Sous-titres : aucun
Source: :BLURAY NATIF

General
Complete name : D:\new release\THE LITTLE MERMAID 3D 1080P FRENCH AC3 HALF-SBS LNA3D\THE LITTLE MERMAID 3D 1080P FRENCH AC3 HALF-SBS LNA3D.mkv
Format : Matroska
Format version : Version 2
File size : 5.75 GiB
Duration : 1h 22mn
Overall bit rate : 9 942 Kbps
Writing application : SolveigMM Matroska Muxer Version 1.0.1110.11
Writing library : libmatroska 1.3.0

Video
ID : 1
Format : AVC
Format/Info : Advanced Video Codec
Format profile : High@L4.1
Format settings, CABAC : Yes
Format settings, ReFrames : 2 frames
Codec ID : V_MPEG4/ISO/AVC
Duration : 1h 22mn
Bit rate : 9 296 Kbps
Width : 1 920 pixels
Height : 1 080 pixels
Display aspect ratio : 16:9
Frame rate mode : Constant
Frame rate : 23.976 fps
Color space : YUV
Chroma subsampling : 4:2:0
Bit depth : 8 bits
Scan type : Progressive
Bits/(Pixel*Frame) : 0.187
Stream size : 5.38 GiB (94%)
Writing library : x264 core
Language : English
Default : No
Forced : No
Color primaries : BT.709
Transfer characteristics : BT.709
Matrix coefficients : BT.709

Audio
ID : 2
Format : AC-3
Format/Info : Audio Coding 3
Mode extension : CM (complete main)
Format settings, Endianness : Big
Codec ID : A_AC3
Duration : 1h 22mn
Bit rate mode : Constant
Bit rate : 448 Kbps
Channel(s) : 6 channels
Channel positions : Front: L C R, Side: L R, LFE
Sampling rate : 48.0 KHz
Bit depth : 16 bits
Compression mode : Lossy
Stream size : 265 MiB (5%)
Language : FRANCAIS
Default : No
Forced : No